Login
Username:
Password:
[Signup]
[Recover Account]


Browse Torrents

Poll


You must be logged in to view polls



Latest Torrents
Asuravadham (2019)...
- [Size: 995.24 MB]

Live.PD.S03E45.HDT...
- [Size: 1.33 GB]

Commando.2.(2017)....
- [Size: 1.27 GB]

Suspiria 2018 1080...
- [Size: 4.40 GB]

Bohemian Rhapsody ...
- [Size: 4.41 GB]


Torrent Details For "Badhaai Ho 2018 Hindi 720p BluRay x264 ESub [MW]"

Badhaai Ho 2018 Hindi 720p BluRay x264 ESub [MW]

Download this torrent | Magnet Download
Health:
Seeds: 91
Leechers: 136
Completed: 47 
Last Checked: 10-02-2019 11:24:31
External Torrent
Update Stats



Images Host

Poster
No poster


Watch-Free-HD     Download

Details
Name:Badhaai Ho 2018 Hindi 720p BluRay x264 ESub [MW]
Description:

 


General
Format : Matroska
Format version : Version 4
File size : 1.09 GiB
Duration : 2 h 5 min
Overall bit rate : 1 247 kb/s

Video
ID : 1
Format : AVC
Format/Info : Advanced Video Codec
Format profile : [email protected]
Format settings : CABAC / 4 Ref Frames
Format settings, CABAC : Yes
Format settings, RefFrames : 4 frames
Codec ID : V_MPEG4/ISO/AVC
Duration : 2 h 5 min
Bit rate : 1 100 kb/s
Width : 1 280 pixels
Height : 544 pixels
Display aspect ratio : 2.35:1
Frame rate mode : Constant
Frame rate : 24.000 FPS
Color space : YUV
Chroma subsampling : 4:2:0
Bit depth : 8 bits
Scan type : Progressive
Bits/(Pixel*Frame) : 0.066
Stream size : 1 003 MiB (89%)
Writing library : x264 core 157 r2935 545de2f

Audio
ID : 2
Format : AAC LC
Codec ID : A_AAC-2
Duration : 2 h 5 min
Bit rate : 129 kb/s
Channel(s) : 2 channels
Channel layout : L R
Sampling rate : 48.0 kHz
Frame rate : 46.875 FPS (1024 SPF)
Compression mode : Lossy
Stream size : 116 MiB (10%)
Language : Hindi
Default : Yes
Forced : No

Text
ID : 3
Format : UTF-8
Codec ID : S_TEXT/UTF8
Codec ID/Info : UTF-8 Plain Text
Duration : 1 h 54 min
Bit rate : 58 b/s
Count of elements : 1554
Stream size : 48.8 KiB (0%)
Default : Yes
Forced : No




Click To View Image

 http://pichub.site/image/k0eN0
 http://pichub.site/image/k0b7b
 http://pichub.site/image/k0j1V
 http://pichub.site/image/kLfBN
 http://pichub.site/image/kL4OT
 http://pichub.site/image/kLJPD

Category:Movies > Bollywood
Lang:Hindi
Total Size:1.09 GB
Info Hash:2ed381e93e69745fb53c2a0842acf406645c8e96
Added By:Freaky
Date Added:10-02-2019 09:30:45
Downloads:173

Ratings:Not Yet Rated (Log in to rate it)


Tracker:
udp://tracker.coppersurfer.tk:6969/announce


File List: 


Comments

No comments still posted

Top
Copyright 2018 DownloadHD -|- Page Generated In 0.307742 secs.
-|- RSS Feed -|- Feed Info